Nope (2022) Multi Sub & Indo Streaming Movie Free Download

Nope.2022.1080p.TELESYNC.x265-iDiOTS



 

 

 

Alur Cerita Terbaru






Poster

MEDIAINFO
Video
ID : 1
Format : HEVC
Format/Info : High Efficiency Video Coding
Format profile : Main 10@L4.1@High
Codec ID : V_MPEGH/ISO/HEVC
Duration : 2 h 10 min
Bit rate : 4 380 kb/s
Width : 1 920 pixels
Height : 1 080 pixels
Display aspect ratio : 16:9
Frame rate mode : Constant
Frame rate : 24.000 FPS
Color space : YUV
Chroma subsampling : 4:2:0
Bit depth : 10 bits
Bits/(Pixel*Frame) : 0.088
Stream size : 3.99 GiB (93%)

Audio
ID : 2
Format : AC-3
Format/Info : Audio Coding 3
Commercial name : Dolby Digital
Codec ID : A_AC3
Duration : 2 h 10 min
Bit rate mode : Constant
Bit rate : 320 kb/s
Channel(s) : 2 channels
Channel layout : L R
Sampling rate : 48.0 kHz
Frame rate : 31.250 FPS (1536 SPF)
Compression mode : Lossy
Stream size : 298 MiB (7%)
Title : english
Language : English
Service kind : Complete Main
Default : Yes
Forced : No

Nope (2022) Multilingual & Sub Indo Streaming Movie Download

 

 

Original

Download Subtitle Multilingual Selective

 

Download Movie

 

Author: Zukét

Leave a Reply

Your email address will not be published.